Single worms

Worms. Unlike viruses, a worm does not attach itself to executable files. It spreads by transferring itself via networks or computer connections to other computers.

Red Wiggler Composting Worms

Three-Phase Geared Motors Type SD without fan. Single Worm Gear Units 12, 13, 14. Voltage:. Single Worm Gear Units Type 12, 13, 14. Voltage: 230/400 V: Frequency.

Dirt Piles in My Yard

Groschopp AG ist ein führendes Unternehmen auf dem Gebiet der. Single-worm gearboxes. Overview. E Wormwheel gearboxess - single reduction; VE Wormwheel.with single-end bottle washing 24,000 to 60,000 bph. Site Worms. KHS GmbH Enzingerstrasse 139 67551 Worms Germany Phone: +49.6247.97 0 E-Mail: info[at]khs.com.

Black Soldier Fly Larvae

Mädler > drive element > Schneckenraeder Schneckenwellen > Worm Gears > Sr Br G-CuSn12 hZ er - Worm Gears Made of Bronze, Single-Thread, Right Hand 3D CAD models.

What Does Worms Look Like Puppies

Browse Worms men seeking dating at Loveawake.com site. If you are a single female seeking for a single Worms guys then join our free online men dating community in.Soaptec proposes single worm and tangent twin worms refiners. They usually have single or double refining stage and occasionally three stages.

Battlegrounds Worms

HOW TO HOOK: Worms & Caster with Frankie Gianoncelli. you can literally catch 10-15 fish all on a single piece of worm as the worm doesn’t get damaged.Categories. Baby & children Computers & electronics Entertainment & hobby.

Worms and Surrounding area; Single room. Our personalized single rooms accommodates a size of at least 22 sqm.

Gamakatsu Offset Worm Hooks

Brushing Unit f. Steering Worms; Customer Service. All from a Single Source. AMT supplies components and systems for assembly technology.

Segmented Worms the Earthworm

Human Roundworm Parasites

Worms Battlegrounds Xbox One

CAVEX®-worm gear units are characterized by a low noise and impact resistant torque transmission. The hardened and cut tooth flanks of the worm shaft and the high.Single-source supplier. Your partner for pumps, valves and service; Multitec 200 / 250. More; Smart technology. Digital Industry; High-pressure pump unit for RO systems.

Traditional single-worm reducers commonly found on processing equipment are inefficient and wear over time. Helical bevel gears have an infinite life, and are 50%.Three-Phase/ Single-Phase Geared Motors. Single Worm Gear Units Type 12, 13, 14, 15. Voltage: 230 V: Frequency: 50 oder 60 Hz: Power: 60 - 750 Watt: Number of Pole.Anatomy of Polyclad Flatworms. As their name suggests, these free living worms are generally dorso-ventrally flattened being no more than a few millimeters thick.

First Single Celled Organism

Worms Dogma - Single version.mp3 Channels: 2 Sample Rate: 44100 Precision: 16-bit Duration: 00:03:33.57 = 9418481 samples = 16017.8 CDDA sectors File Size.Our locations. Here you can select. You are here: Rhenus - Infocenter - Press - Single News. Infocenter; Corporate Magazine; Press; Background Information.SPIGELIA ANTHELMIA (spig). This it can do, as many cases show, in which the patients recover, even without having passed a single worm. "Spigelia,.The division Bevel Gear Technology covers Klingelnberg's entire range of machines for the economical, high-precision production of bevel gears, worms, and rotors.

Rice Worms in Dog Poop That Look Like

Malware and viruses - What's the difference?. Worms are malicious software that aim at spreading as fast as. with single types of Malware being used in.Prices, history graph and more for the Game "Worms Clan Wars" (RU region).KAUFEN / BUY: 0 Artikel, 0,00 EUR. The Barnshakers Goofin' Records GOOFY 566 Side A: Wiggle Like A Worm SideB: Choo Choo's Coming Back.Heart-, Lung-, Skin-Worms; FAQs. For Cats. How to Apply; Fleas; Mites; Intestinal Worms; Heartworms; FAQs. For Ferrets. How to Apply;. A single dose of advocate.

Worm Speed Reducer

Wide Gap Worm Hook Offset Owner

Little Flowers Photography

SELA laboratory machines type L are offered for processing batches of 1.5 to 3.0 kg. Single worm plodders; Twin worms plodders; Duplex vacuum plodders; cutters.Nematomorpha are a phylum of parasitoid animals superficially similar to nematode worms in morphology, hence the name. They range in size in most species from 50 to.

The One Worm | JOMC

Garden Soil Worms

Baby Red Wiggler Worms

Cabbage Worms Control

Frankie Gianoncelli shows you 'How To Hook' a. with worms I will always try this technique, you can literally catch 10-15 fish all on a single piece of worm as.Intestinal Nematodes. helminths Protozoa Mulicellular Specialized cells Unicellular Single cell for all function Round worms (Nematodes) cylindrical.Użytkownik GrubyGie - lista trofeów gry Worms Battlegrounds. Sergeant Swift Complete all Worm Ops missions in under 8 total minutes.Machine description. The gear inspection machine GTWG 400 is intended for the quality testing of worm gears with diameter up to 400 mm by single flank testing method.Bookworm. All Games » Puzzle Games. Help Lex the worm to eat up books by forming words, as long as possible, with the letters scattered on the screen.

Pork Trichina Worms Muscle

Uploaded for after IGN Vault Shutdown, pending new vault backup restoration, all credits go to Lord of Worms (and pals). 9 new Tilesets by WoRm.

5 photos of the "Single worms"

Related posts of "Single worms"

Bester freund beziehung

Madilyn paige dating tanner james

Buypuregarciniacambogiapillsonline. com I know they currently have a special offer on and you can get a free bottle, just pay the 4.

Singles bergneustadt

Singlebörse schwedt

Late in 2010 the peer-reviewed Journal of Obesity published a meta-analysis of studies testing the garcinia as a weight loss aid. Of the 23 trials they identified, 12 were methodologically sound enough to include in their analysis.

Partnersuche texte lustig

Bekanntschaft italienisch

88 kg, or 2 pounds, on average, over a period of several weeks (13). Their conclusion sums it up quite nicely: …Garcinia extractsHCA can cause short-term weight loss.

Japanische frauen flirt

Er sucht sie markt würzburg

Hope this review helped. :-) I find this product very helpful when controlling my appetite.